Warez Stuff!!underground

Phantom (2013) 720p Blu-Ray x264 [Dual-Audio] [English 5.1 + Hindi]

| 0 Comments | 0 TrackBacks

Click here to download the Torrent file: Phantom (2013) 720p Blu-Ray x264 [Dual-Audio] [English 5.1 + Hindi] - Mafiaking.mkv

 

 

clip_image001

 

 

 

Quote:




IMDB Rating: 5.8/10.0


GENRE: Thriller 


General
Unique ID : 241635698513090878801592823880830073061 (0xB5C957BDCDD13B4DA22B0D1609E2B8E5)
Complete name : Phantom (2013) 720p Blu-Ray x264 [Dual-Audio] [English 5.1 + Hindi] - Mafiaking.mkv
Format : Matroska
Format version : Version 4 / Version 2
File size : 931 MiB
Duration : 1h 38mn
Overall bit rate : 1 321 Kbps
Movie name : Phantom (2013) 720p Blu-Ray x264 [Dual-Audio] [English 5.1 + Hindi] - Mafiaking
Encoded date : UTC 2013-12-22 15:53:18
Writing application : mkvmerge v6.2.0 ('Promised Land') built on Apr 28 2013 12:22:01
Writing library : libebml v1.3.0 + libmatroska v1.4.0


Video
ID : 1
Format : AVC
Format/Info : Advanced Video Codec
Format profile : High@L3.1
Format settings, CABAC : Yes
Format settings, ReFrames : 5 frames
Codec ID : V_MPEG4/ISO/AVC
Duration : 1h 38mn
Bit rate : 1 000 Kbps
Width : 1 280 pixels
Height : 564 pixels
Display aspect ratio : 2.25:1
Frame rate mode : Constant
Frame rate : 23.976 fps
Color space : YUV
Chroma subsampling : 4:2:0
Bit depth : 8 bits
Scan type : Progressive
Bits/(Pixel*Frame) : 0.058
Stream size : 687 MiB (74%)
Title : Mafiaking

Language : English
Default : Yes
Forced : No


Audio #1
ID : 2
Format : AC-3
Format/Info : Audio Coding 3
Mode extension : CM (complete main)
Format settings, Endianness : Big
Codec ID : A_AC3
Duration : 1h 38mn
Bit rate mode : Constant
Bit rate : 128 Kbps
Channel(s) : 2 channels
Channel positions : Front: L R
Sampling rate : 48.0 KHz
Bit depth : 16 bits
Compression mode : Lossy
Stream size : 90.2 MiB (10%)
Title : Mafiaking
Language : Hindi
Default : Yes
Forced : No


Audio #2
ID : 3
Format : AC-3
Format/Info : Audio Coding 3
Mode extension : CM (complete main)
Format settings, Endianness : Big
Codec ID : A_AC3
Duration : 1h 38mn
Bit rate mode : Constant
Bit rate : 192 Kbps
Channel(s) : 6 channels
Channel positions : Front: L C R, Side: L R, LFE
Sampling rate : 48.0 KHz
Bit depth : 16 bits
Compression mode : Lossy
Stream size : 135 MiB (15%)
Title : Mafiaking
Language : English
Default : No
Forced : No

Text
ID : 4
Format : UTF-8
Codec ID : S_TEXT/UTF8
Codec ID/Info : UTF-8 Plain Text
Title : Mafiaking
Language : English
Default : Yes
Forced : No


SAMPLE WITH IN TORRENT





 



clip_image002

clip_image003

clip_image004

clip_image005

clip_image006

clip_image007

clip_image008

clip_image009

clip_image010

clip_image011

clip_image012

clip_image013

clip_image014

clip_image015

clip_image016

Special Thanks To BHATTI87 For Hindi Audio.

clip_image017

No TrackBacks

TrackBack URL: http://crackzhack.net/MT/mt-tb.cgi/7

Leave a comment

About this Entry

This page contains a single entry by administrator published on December 26, 2013 8:46 PM.

Now You See Me (2013) EXTENDED 720p Blu-Ray x264 [Dual-Audio][English 5.1 + Hindi] was the previous entry in this blog.

The 13th Warrior (1999) BRRip 720p x264 [Dual Audio] [Hindi +English 5.1] is the next entry in this blog.

Find recent content on the main index or look in the archives to find all content.




Fytclub Live Music Player
HTTPS://PLAY.GOOGLE.COM/STORE/APPS/DEVELOPER?ID=EBHAKT+INC.

Fytclub Live Music Player is an android application to play live streaming ...

© crackzhack.net.
Website Design by skar.us web design media a subsidary of ebhakt Inc. Hosting provided by fytclub.net web hosting facility